Fast and Furious 9 kat Download Free Movie Torrent

location.href="#torrentp"

Virus free DOWNLOAD

Fast and Furious 9

Visit us =

Great

Full name: Fast & Furious 9 (2021) 1080p F9 English HEVC HDCAM x264 AAC I

Address: Matroska

Version format: Version 4 / Version 2

File size: GiB

Duration: 2 11 min

Slightly total: 1,491 kbps

Encrypted date: UTC 2021-05-22 18:48:30

Writing application: mkvmerge (‘Over the Horizon’) 64bit

Writing in the library: libebml + libmatroska

Attachments:

Video

ID: 1

Call: HEVC

Format / Description: High performance video audio installation

Structure profile: @Main

Codec ID: V_MPEGH / ISO / HEVC

Duration: 2 11 min

Minimum speed: 1,363 kbps

Width: 1,920 pixels

Height: 800 pixels

Display ratio: 1

Thumbnail frequency status: often

Frames per second: FPS

Color space: YUV

Chrome production: 4: 2: 0

Depth: 8 bits

Bits / (Pixel * frame):

Stream size: GiB (91%)

Writing in the library: x265 + 1-169e76b6bbcc: 8bit + 10bit + 12bit

English language

Default: Yes

Forced: No.

Sound

ID: 2

Call: AAC

Format / Notes: High volume codec

Structure format: LC

Codec ID: A_AAC

Duration: 2 11 min

Minimum speed: 125 kb / s

Stations: Route 2

Channel positions: Front: L R

Sampling rate: kHz

Frames per second: FPS (1024 SPF)

Squeezing method: Loss

Stream size: 118 MiB (8%)

English language

Default: Yes

Forced: No.

  • Fast and Furious 9 snookie AVI utorrent Download Movie Torrent

User votes 42 2

Virus free DOWNLOAD

Fast and Furious 9

Visit us =

Great

Full name: Fast & Furious 9 (2021) 1080p F9 English HEVC HDCAM x264 AAC I

Address: Matroska

Version format: Version 4 / Version 2

File size: GiB

Duration: 2 11 min

Slightly total: 1,491 kbps

Encrypted date: UTC 2021-05-22 18:48:30

Writing application: mkvmerge (‘Over the Horizon’) 64bit

Writing in the library: libebml + libmatroska

Attachments:

Video

ID: 1

Call: HEVC

Format / Description: High performance video audio installation

Structure profile: @Main

Codec ID: V_MPEGH / ISO / HEVC

Duration: 2 11 min

Minimum speed: 1,363 kbps

Width: 1,920 pixels

Height: 800 pixels

Display ratio: 1

Thumbnail frequency status: often

Frames per second: FPS

Color space: YUV

Chrome production: 4: 2: 0

Depth: 8 bits

Bits / (Pixel * frame):

Stream size: GiB (91%)

Writing in the library: x265 + 1-169e76b6bbcc: 8bit + 10bit + 12bit

English language

Default: Yes

Forced: No.

Sound

ID: 2

Call: AAC

Format / Notes: High volume codec

Structure format: LC

Codec ID: A_AAC

Duration: 2 11 min

Minimum speed: 125 kb / s

Stations: Route 2

Channel positions: Front: L R

Sampling rate: kHz

Frames per second: FPS (1024 SPF)

Squeezing method: Loss

Stream size: 118 MiB (8%)

English language

Default: Yes

Forced: No.

  • Fast and Furious 9 snookie AVI utorrent Download Movie Torrent

User votes 42 2
Default image
ADMIN
Articles: 546

Leave a Reply